<?xml version="1.0" standalone="no"?>
<!DOCTYPE svg PUBLIC "-//W3C//DTD SVG 1.1//EN" "http://www.w3.org/Graphics/SVG/1.1/DTD/svg11.dtd">
<svg xmlns="http://www.w3.org/2000/svg">
    <defs>
        <font id="Roboto" horiz-adv-x="1158">
            <font-face
                    font-family="Roboto"
                    units-per-em="2048"
                    panose-1="2 0 0 0 0 0 0 0 0 0"
                    ascent="1900"
                    descent="-500"
                    alphabetic="0"/>
            <glyph unicode=" " horiz-adv-x="507"/>
            <glyph unicode="!" horiz-adv-x="527"
                   d="M347 411H180L167 1456H361L347 411ZM160 93Q160 138 187 168T269 199T351 169T379 93T351 19T269 -11T188 18T160 93Z"/>
            <glyph unicode="&quot;" horiz-adv-x="655"
                   d="M277 1400L247 1042H136L137 1536H277V1400ZM547 1400L517 1042H406L407 1536H547V1400Z"/>
            <glyph unicode="#" horiz-adv-x="1261"
                   d="M765 410H501L421 0H278L358 410H119V547H384L453 901H195V1040H480L562 1456H705L623 1040H887L969 1456H1113L1031 1040H1235V901H1004L935 547H1160V410H909L829 0H685L765 410ZM527 547H791L860 901H596L527 547Z"/>
            <glyph unicode="$" horiz-adv-x="1150" d="M856 375Q856 467 792 530T574 644Q361 709 264 813T166 1079Q166 1243 261 1348T524 1473V1692H673V1472Q841 1449 934 1331T1028 1008H844Q844 1149 777 1232T596 1315Q477 1315 414 1254T351 1082Q351 980 417 920T636
810T874 701T1000 562T1041 377Q1041 208 940 105T655 -17V-208H507V-17Q321 0 216 115T110 429H295Q295 290 368 215T575 140Q706 140 781 203T856 375Z"/>
            <glyph unicode="%" horiz-adv-x="1500" d="M105 1176Q105 1307 188 1392T403 1477Q536 1477 618 1392T701 1170V1099Q701 967 618 884T405 800Q275 800 190 883T105 1106V1176ZM243 1099Q243 1021 287 971T405 920Q476 920 519 969T563 1103V1176Q563 1254 520
1305T403 1356T286 1305T243 1172V1099ZM814 357Q814 488 897 572T1112 657T1327 573T1411 350V279Q1411 148 1328 64T1114 -21T899 62T814 285V357ZM952 279Q952 200 996 150T1114 99Q1186 99 1229 148T1272 283V357Q1272 436 1229 486T1112 536Q1041 536 997
487T952 353V279ZM447 110L342 176L1053 1314L1158 1248L447 110Z"/>
            <glyph unicode="&amp;" horiz-adv-x="1273" d="M101 391Q101 496 159 584T383 789Q286 907 253 979T220 1122Q220 1288 318 1382T584 1476Q734 1476 832 1389T930 1168Q930 1080 886 1006T730 849L623 770L947 383Q1015 513 1015 672H1182Q1182 417 1059 249L1267
0H1045L948 115Q874 49 775 15T572 -20Q359 -20 230 93T101 391ZM572 131Q719 131 841 243L486 668L453 644Q286 521 286 391Q286 273 362 202T572 131ZM405 1128Q405 1032 523 888L641 971Q709 1019 734 1062T759 1168Q759 1235 709 1279T583 1324Q501 1324 453
1269T405 1128Z"/>
            <glyph unicode="&apos;" horiz-adv-x="357" d="M253 1425L232 1057H103L104 1536H253V1425Z"/>
            <glyph unicode="(" horiz-adv-x="700"
                   d="M133 591Q133 817 193 1025T374 1403T623 1643L661 1521Q515 1409 422 1179T319 664L318 579Q318 193 459 -91Q544 -261 661 -357L623 -470Q490 -396 369 -222Q133 118 133 591Z"/>
            <glyph unicode=")" horiz-adv-x="712"
                   d="M567 581Q567 358 509 154T330 -224T77 -470L38 -357Q192 -239 285 9T381 561V593Q381 803 337 983T215 1307T38 1530L77 1643Q209 1570 328 1399T507 1022T567 581Z"/>
            <glyph unicode="*" horiz-adv-x="882"
                   d="M330 983L28 1073L74 1224L376 1112L367 1456H520L510 1107L807 1217L853 1065L546 974L744 703L620 609L434 897L254 616L129 707L330 983Z"/>
            <glyph unicode="+" horiz-adv-x="1161" d="M670 781H1076V606H670V146H484V606H78V781H484V1206H670V781Z"/>
            <glyph unicode="," horiz-adv-x="402"
                   d="M134 -290L29 -218Q123 -87 127 52V219H308V74Q308 -27 259 -128T134 -290Z"/>
            <glyph unicode="-" horiz-adv-x="565" d="M525 543H37V694H525V543Z"/>
            <glyph unicode="." horiz-adv-x="539"
                   d="M144 97Q144 145 172 177T258 209T344 177T374 97Q374 51 345 20T258 -11T173 20T144 97Z"/>
            <glyph unicode="/" horiz-adv-x="844" d="M177 -125H18L626 1456H784L177 -125Z"/>
            <glyph unicode="0" horiz-adv-x="1150" d="M1034 621Q1034 296 923 138T576 -20Q343 -20 231 134T115 596V843Q115 1164 226 1320T574 1476Q809 1476 920 1326T1034 861V621ZM849 874Q849 1109 783 1216T574 1324Q432 1324 367 1217T300 888V592Q300 356 368 244T576
131Q713 131 779 237T849 571V874Z"/>
            <glyph unicode="1" horiz-adv-x="1150" d="M729 0H543V1233L170 1096V1264L700 1463H729V0Z"/>
            <glyph unicode="2" horiz-adv-x="1150"
                   d="M1075 0H121V133L625 693Q737 820 779 899T822 1064Q822 1178 753 1251T569 1324Q431 1324 355 1246T278 1027H93Q93 1228 222 1352T569 1476Q772 1476 890 1370T1008 1086Q1008 871 734 574L344 151H1075V0Z"/>
            <glyph unicode="3" horiz-adv-x="1150" d="M390 818H529Q660 820 735 887T810 1068Q810 1324 555 1324Q435 1324 364 1256T292 1074H107Q107 1247 233 1361T555 1476Q761 1476 878 1367T995 1064Q995 969 934 880T766 747Q886 709 951 621T1017 406Q1017 210 889
95T556 -20T223 91T94 384H280Q280 269 355 200T556 131Q690 131 761 201T832 402Q832 529 754 597T529 667H390V818Z"/>
            <glyph unicode="4" horiz-adv-x="1150"
                   d="M902 489H1104V338H902V0H716V338H53V447L705 1456H902V489ZM263 489H716V1203L694 1163L263 489Z"/>
            <glyph unicode="5" horiz-adv-x="1150" d="M206 730L280 1456H1026V1285H437L393 888Q500 951 636 951Q835 951 952 820T1069 464Q1069 239 948 110T608 -20Q415 -20 293 87T154 383H329Q346 258 418 195T608 131Q737 131 810 219T884 462Q884 608 805 696T593
785Q472 785 403 732L354 692L206 730Z"/>
            <glyph unicode="6" horiz-adv-x="1150" d="M847 1457V1300H813Q597 1296 469 1172T321 823Q436 955 635 955Q825 955 938 821T1052 475Q1052 250 930 115T601 -20Q392 -20 262 140T132 554V625Q132 1027 303 1239T814 1457H847ZM604 801Q509 801 429 744T318 601V533Q318
353 399 243T601 133Q726 133 797 225T869 466Q869 616 797 708T604 801Z"/>
            <glyph unicode="7" horiz-adv-x="1150" d="M1061 1352L458 0H264L865 1304H77V1456H1061V1352Z"/>
            <glyph unicode="8" horiz-adv-x="1150" d="M1004 1076Q1004 967 947 882T791 749Q905 700 971 606T1038 393Q1038 204 911 92T575 -20Q365 -20 239 92T112 393Q112 511 176 606T355 750Q258 798 202 883T146 1076Q146 1260 264 1368T575 1476Q767 1476 885 1368T1004
1076ZM853 397Q853 519 776 596T573 673T373 597T297 397T370 202T575 131Q705 131 779 202T853 397ZM575 1324Q466 1324 399 1257T331 1073Q331 962 397 894T575 825T752 893T819 1073T750 1254T575 1324Z"/>
            <glyph unicode="9" horiz-adv-x="1150" d="M830 640Q772 571 692 529T515 487Q389 487 296 549T151 723T100 972Q100 1118 155 1235T313 1414T551 1476Q767 1476 891 1315T1016 874V820Q1016 395 848 200T341 -1H305V155H344Q573 159 696 274T830 640ZM545 640Q638
640 716 697T831 838V912Q831 1094 752 1208T552 1322Q430 1322 356 1229T282 982Q282 833 353 737T545 640Z"/>
            <glyph unicode=":" horiz-adv-x="496"
                   d="M390 97Q390 145 418 177T504 209T590 177T620 97Q620 51 591 20T504 -11T419 20T390 97ZM135 980Q135 1028 163 1060T249 1092T335 1060T365 980Q365 934 336 903T249 872T164 903T135 980Z"/>
            <glyph unicode=";" horiz-adv-x="433"
                   d="M111 980Q111 1028 139 1060T225 1092T311 1060T341 980Q341 934 312 903T225 872T140 903T111 980ZM146 -290L41 -218Q135 -87 139 52V219H320V74Q320 -27 271 -128T146 -290Z"/>
            <glyph unicode="&lt;" horiz-adv-x="1041" d="M264 644L890 391V195L72 574V720L890 1098V902L264 644Z"/>
            <glyph unicode="=" horiz-adv-x="1124" d="M986 814H152V975H986V814ZM986 399H152V559H986V399Z"/>
            <glyph unicode="&gt;" horiz-adv-x="1070" d="M795 650L134 909V1099L988 721V575L134 196V388L795 650Z"/>
            <glyph unicode="?" horiz-adv-x="967" d="M357 410Q359 529 384 598T486 751L617 886Q701 981 701 1090Q701 1195 646 1254T486 1314Q384 1314 322 1260T260 1115H75Q77 1277 190 1376T486 1476Q675 1476 780 1375T886 1096Q886 921 724 751L615 643Q542 562 542
410H357ZM349 93Q349 138 376 168T458 199T540 169T568 93T540 19T458 -11T377 18T349 93Z"/>
            <glyph unicode="@" horiz-adv-x="1839" d="M1738 502Q1726 260 1618 120T1329 -20Q1142 -20 1089 148Q1035 63 966 22T822 -20Q680 -20 607 96T553 417Q568 582 628 711T784 915T985 989Q1066 989 1130 968T1274 883L1222 329Q1203 98 1350 98Q1463 98 1533 210T1609
502Q1628 891 1465 1095T967 1299Q766 1299 610 1200T364 912T263 478Q251 230 323 48T542 -231T899 -328Q989 -328 1079 -306T1230 -249L1267 -364Q1205 -403 1103 -428T895 -453Q645 -453 465 -341T196 -17T118 478Q130 753 241 972T542 1311T971 1431Q1220 1431
1398 1319T1663 996T1738 502ZM712 417Q698 275 738 199T867 123Q927 123 982 174T1074 320L1075 329L1121 832Q1065 861 1001 861Q884 861 808 742T712 417Z"/>
            <glyph unicode="A" horiz-adv-x="1336"
                   d="M973 380H363L226 0H28L584 1456H752L1309 0H1112L973 380ZM421 538H916L668 1219L421 538Z"/>
            <glyph unicode="B" horiz-adv-x="1275" d="M169 0V1456H645Q882 1456 1001 1358T1121 1068Q1121 966 1063 888T905 766Q1023 733 1091 641T1160 420Q1160 224 1033 112T674 0H169ZM361 681V157H678Q812 157 889 226T967 418Q967 681 681 681H361ZM361 835H651Q777
835 852 898T928 1069Q928 1189 858 1243T645 1298H361V835Z"/>
            <glyph unicode="C" horiz-adv-x="1333" d="M1240 462Q1213 231 1070 106T688 -20Q430 -20 275 165T119 660V800Q119 1003 191 1157T397 1393T705 1476Q937 1476 1077 1347T1240 988H1047Q1022 1162 939 1240T705 1318Q521 1318 417 1182T312 795V654Q312 417 411
277T688 137Q848 137 933 209T1047 462H1240Z"/>
            <glyph unicode="D" horiz-adv-x="1343"
                   d="M169 0V1456H580Q770 1456 916 1372T1141 1133T1222 777V684Q1222 478 1143 323T916 85T572 0H169ZM361 1298V157H563Q785 157 908 295T1032 688V773Q1032 1021 916 1158T585 1298H361Z"/>
            <glyph unicode="E" horiz-adv-x="1164" d="M992 673H361V157H1094V0H169V1456H1084V1298H361V830H992V673Z"/>
            <glyph unicode="F" horiz-adv-x="1132" d="M972 643H361V0H169V1456H1071V1298H361V800H972V643Z"/>
            <glyph unicode="G" horiz-adv-x="1395" d="M1244 191Q1170 85 1038 33T729 -20Q551 -20 413 63T200 301T122 658V785Q122 1114 275 1295T707 1476Q935 1476 1074 1360T1244 1029H1052Q998 1318 708 1318Q515 1318 416 1183T315 790V671Q315 426 427 282T730 137Q838
137 919 161T1053 242V569H716V725H1244V191Z"/>
            <glyph unicode="H" horiz-adv-x="1460" d="M1288 0H1095V673H361V0H169V1456H361V830H1095V1456H1288V0Z"/>
            <glyph unicode="I" horiz-adv-x="557" d="M375 0H183V1456H375V0Z"/>
            <glyph unicode="J" horiz-adv-x="1130"
                   d="M779 1456H972V425Q972 216 847 98T512 -20Q295 -20 174 91T53 402H245Q245 277 313 207T512 137Q631 137 704 212T779 422V1456Z"/>
            <glyph unicode="K" horiz-adv-x="1284"
                   d="M539 677L361 492V0H169V1456H361V736L1008 1456H1240L667 813L1285 0H1055L539 677Z"/>
            <glyph unicode="L" horiz-adv-x="1102" d="M362 157H1052V0H169V1456H362V157Z"/>
            <glyph unicode="M" horiz-adv-x="1788"
                   d="M417 1456L893 268L1369 1456H1618V0H1426V567L1444 1179L966 0H819L342 1176L361 567V0H169V1456H417Z"/>
            <glyph unicode="N" horiz-adv-x="1460" d="M1288 0H1095L362 1122V0H169V1456H362L1097 329V1456H1288V0Z"/>
            <glyph unicode="O" horiz-adv-x="1408" d="M1289 681Q1289 467 1217 308T1013 64T705 -20Q533 -20 400 64T194 305T118 668V773Q118 983 191 1144T397 1390T703 1476Q878 1476 1011 1392T1217 1147T1289 773V681ZM1098 775Q1098 1034 994 1172T703 1311Q521 1311
417 1173T309 788V681Q309 430 414 287T705 143Q891 143 993 278T1098 667V775Z"/>
            <glyph unicode="P" horiz-adv-x="1292"
                   d="M361 570V0H169V1456H706Q945 1456 1080 1334T1216 1011Q1216 799 1084 685T704 570H361ZM361 727H706Q860 727 942 799T1024 1009Q1024 1139 942 1217T717 1298H361V727Z"/>
            <glyph unicode="Q" horiz-adv-x="1408" d="M1281 681Q1281 470 1214 318T1026 79L1286 -125L1155 -246L848 -2Q776 -20 696 -20Q524 -20 391 64T185 305T109 668V773Q109 983 182 1144T388 1390T694 1476Q870 1476 1003 1391T1209 1147T1281 774V681ZM1089 775Q1089
1032 987 1171T694 1311Q513 1311 409 1173T301 788V681Q301 431 405 287T696 143T984 278T1089 667V775Z"/>
            <glyph unicode="R" horiz-adv-x="1261"
                   d="M703 589H361V0H168V1456H650Q896 1456 1028 1344T1161 1018Q1161 882 1088 781T883 630L1225 12V0H1019L703 589ZM361 746H656Q799 746 883 820T968 1018Q968 1153 888 1225T655 1298H361V746Z"/>
            <glyph unicode="S" horiz-adv-x="1215" d="M598 649Q351 720 239 823T126 1079Q126 1251 263 1363T621 1476Q771 1476 888 1418T1070 1258T1135 1035H942Q942 1167 858 1242T621 1318Q479 1318 400 1256T320 1082Q320 993 395 932T652 819T936 707T1088 563T1138
370Q1138 193 1000 87T631 -20Q481 -20 351 37T151 195T80 422H273Q273 290 370 214T631 137Q783 137 864 199T945 368T870 533T598 649Z"/>
            <glyph unicode="T" horiz-adv-x="1222" d="M1175 1298H707V0H516V1298H49V1456H1175V1298Z"/>
            <glyph unicode="U" horiz-adv-x="1328"
                   d="M1194 1456V466Q1193 260 1065 129T716 -18L665 -20Q426 -20 284 109T140 464V1456H330V470Q330 312 417 225T665 137Q828 137 914 224T1001 469V1456H1194Z"/>
            <glyph unicode="V" horiz-adv-x="1303" d="M651 255L1067 1456H1277L737 0H567L28 1456H237L651 255Z"/>
            <glyph unicode="W" horiz-adv-x="1817"
                   d="M483 459L511 267L552 440L840 1456H1002L1283 440L1323 264L1354 460L1580 1456H1773L1420 0H1245L945 1061L922 1172L899 1061L588 0H413L61 1456H253L483 459Z"/>
            <glyph unicode="X" horiz-adv-x="1284"
                   d="M644 898L993 1456H1219L759 734L1230 0H1002L644 568L284 0H57L529 734L68 1456H293L644 898Z"/>
            <glyph unicode="Y" horiz-adv-x="1230" d="M613 725L993 1456H1211L709 543V0H517V543L15 1456H235L613 725Z"/>
            <glyph unicode="Z" horiz-adv-x="1226" d="M313 157H1146V0H86V144L884 1298H99V1456H1114V1315L313 157Z"/>
            <glyph unicode="[" horiz-adv-x="543" d="M523 1512H332V-160H523V-312H146V1664H523V1512Z"/>
            <glyph unicode="\" horiz-adv-x="840" d="M40 1456H216L824 -125H648L40 1456Z"/>
            <glyph unicode="]" horiz-adv-x="543" d="M9 1664H387V-312H9V-160H202V1512H9V1664Z"/>
            <glyph unicode="^" horiz-adv-x="856" d="M426 1211L236 729H64L363 1456H490L788 729H617L426 1211Z"/>
            <glyph unicode="_" horiz-adv-x="924" d="M920 -151H4V0H920V-151Z"/>
            <glyph unicode="`" horiz-adv-x="633" d="M474 1242H315L57 1536H280L474 1242Z"/>
            <glyph unicode="a" horiz-adv-x="1114" d="M808 0Q792 32 782 114Q653 -20 474 -20Q314 -20 212 70T109 300Q109 469 237 562T599 656H779V741Q779 838 721 895T550 953Q451 953 384 903T317 782H131Q131 863 188 938T344 1058T561 1102Q748 1102 854 1009T964
751V253Q964 104 1002 16V0H808ZM501 141Q588 141 666 186T779 303V525H634Q294 525 294 326Q294 239 352 190T501 141Z"/>
            <glyph unicode="b" horiz-adv-x="1149"
                   d="M1056 529Q1056 281 942 131T636 -20Q431 -20 319 125L310 0H140V1536H325V963Q437 1102 634 1102T943 953T1056 545V529ZM871 550Q871 739 798 842T588 945Q405 945 325 775V307Q410 137 590 137Q723 137 797 240T871 550Z"/>
            <glyph unicode="c" horiz-adv-x="1072" d="M574 131Q673 131 747 191T829 341H1004Q999 248 940 164T783 30T574 -20Q353 -20 223 127T92 531V562Q92 720 150 843T316 1034T573 1102Q755 1102 875 993T1004 710H829Q821 815 750 882T573 950Q432 950 355 849T277
555V520Q277 333 354 232T574 131Z"/>
            <glyph unicode="d" horiz-adv-x="1155"
                   d="M95 550Q95 799 213 950T522 1102Q712 1102 823 972V1536H1008V0H838L829 116Q718 -20 520 -20Q332 -20 214 134T95 536V550ZM280 529Q280 345 356 241T566 137Q742 137 823 295V792Q740 945 568 945Q432 945 356 840T280 529Z"/>
            <glyph unicode="e" horiz-adv-x="1085" d="M589 -20Q369 -20 231 124T93 511V545Q93 706 154 832T326 1030T566 1102Q777 1102 894 963T1011 565V488H278Q282 328 371 230T599 131Q697 131 765 171T884 277L997 189Q861 -20 589 -20ZM566 950Q454 950 378 869T284
640H826V654Q818 795 750 872T566 950Z"/>
            <glyph unicode="f" horiz-adv-x="711"
                   d="M231 0V939H60V1082H231V1193Q231 1367 324 1462T587 1557Q651 1557 714 1540L704 1390Q657 1399 604 1399Q514 1399 465 1347T416 1196V1082H647V939H416V0H231Z"/>
            <glyph unicode="g" horiz-adv-x="1149" d="M96 550Q96 803 213 952T523 1102Q721 1102 832 962L841 1082H1010V26Q1010 -184 886 -305T551 -426Q434 -426 322 -376T151 -239L247 -128Q366 -275 538 -275Q673 -275 748 -199T824 15V108Q713 -20 521 -20Q331 -20
214 133T96 550ZM282 529Q282 346 357 242T567 137Q742 137 824 296V790Q739 945 569 945Q434 945 358 840T282 529Z"/>
            <glyph unicode="h" horiz-adv-x="1128"
                   d="M325 951Q448 1102 645 1102Q988 1102 991 715V0H806V716Q805 833 753 889T589 945Q499 945 431 897T325 771V0H140V1536H325V951Z"/>
            <glyph unicode="i" horiz-adv-x="497"
                   d="M341 0H156V1082H341V0ZM141 1369Q141 1414 168 1445T250 1476T332 1445T360 1369T332 1294T250 1264T169 1294T141 1369Z"/>
            <glyph unicode="j" horiz-adv-x="489"
                   d="M331 1082V-125Q331 -437 48 -437Q-13 -437 -65 -419V-271Q-33 -279 19 -279Q81 -279 113 -246T146 -129V1082H331ZM127 1369Q127 1413 154 1444T235 1476Q289 1476 317 1445T345 1369T317 1294T235 1264T154 1294T127 1369Z"/>
            <glyph unicode="k" horiz-adv-x="1038"
                   d="M442 501L326 380V0H141V1536H326V607L425 726L762 1082H987L566 630L1036 0H819L442 501Z"/>
            <glyph unicode="l" horiz-adv-x="497" d="M341 0H156V1536H341V0Z"/>
            <glyph unicode="m" horiz-adv-x="1795" d="M314 1082L319 962Q438 1102 640 1102Q867 1102 949 928Q1003 1006 1089 1054T1294 1102Q1650 1102 1656 725V0H1471V714Q1471 830 1418 887T1240 945Q1137 945 1069 884T990 718V0H804V709Q804 945 573 945Q391 945
324 790V0H139V1082H314Z"/>
            <glyph unicode="n" horiz-adv-x="1130"
                   d="M315 1082L321 946Q445 1102 645 1102Q988 1102 991 715V0H806V716Q805 833 753 889T589 945Q499 945 431 897T325 771V0H140V1082H315Z"/>
            <glyph unicode="o" horiz-adv-x="1168" d="M91 551Q91 710 153 837T327 1033T582 1102Q803 1102 939 949T1076 542V529Q1076 371 1016 246T843 50T584 -20Q364 -20 228 133T91 538V551ZM277 529Q277 349 360 240T584 131Q725 131 808 241T891 551Q891 729 807
839T582 950Q445 950 361 841T277 529Z"/>
            <glyph unicode="p" horiz-adv-x="1149" d="M1054 529Q1054 282 941 131T635 -20Q438 -20 325 105V-416H140V1082H309L318 962Q431 1102 632 1102Q827 1102 940 955T1054 546V529ZM869 550Q869 733 791 839T577 945Q409 945 325 796V279Q408 131 579 131Q712 131
790 236T869 550Z"/>
            <glyph unicode="q" horiz-adv-x="1164" d="M95 550Q95 805 212 953T526 1102Q718 1102 829 973L837 1082H1007V-416H822V100Q710 -20 524 -20Q328 -20 212 132T95 537V550ZM280 529Q280 343 358 237T570 131Q735 131 822 277V807Q734 950 572 950Q438 950 359
844T280 529Z"/>
            <glyph unicode="r" horiz-adv-x="693"
                   d="M663 916Q621 923 572 923Q390 923 325 768V0H140V1082H320L323 957Q414 1102 581 1102Q635 1102 663 1088V916Z"/>
            <glyph unicode="s" horiz-adv-x="1056" d="M770 287Q770 362 714 403T517 475T294 547T172 647T132 785Q132 918 244 1010T532 1102Q716 1102 830 1007T945 764H759Q759 840 695 895T532 950Q431 950 374 906T317 791Q317 724 370 690T561 625T786 551T913 448T955
300Q955 155 839 68T538 -20Q408 -20 308 26T152 154T95 333H280Q285 240 354 186T538 131Q643 131 706 173T770 287Z"/>
            <glyph unicode="t" horiz-adv-x="669"
                   d="M391 1344V1082H593V939H391V268Q391 203 418 171T510 138Q542 138 598 150V0Q525 -20 456 -20Q332 -20 269 55T206 268V939H9V1082H206V1344H391Z"/>
            <glyph unicode="u" horiz-adv-x="1129"
                   d="M808 107Q700 -20 491 -20Q318 -20 228 80T136 378V1082H321V383Q321 137 521 137Q733 137 803 295V1082H988V0H812L808 107Z"/>
            <glyph unicode="v" horiz-adv-x="992" d="M497 251L765 1082H954L566 0H425L33 1082H222L497 251Z"/>
            <glyph unicode="w" horiz-adv-x="1539"
                   d="M1098 255L1306 1082H1491L1176 0H1026L763 820L507 0H357L43 1082H227L440 272L692 1082H841L1098 255Z"/>
            <glyph unicode="x" horiz-adv-x="1015"
                   d="M503 687L743 1082H959L605 547L970 0H756L506 405L256 0H41L406 547L52 1082H266L503 687Z"/>
            <glyph unicode="y" horiz-adv-x="969"
                   d="M494 271L746 1082H944L509 -167Q408 -437 188 -437L153 -434L84 -421V-271L134 -275Q228 -275 280 -237T367 -98L408 12L22 1082H224L494 271Z"/>
            <glyph unicode="z" horiz-adv-x="1015" d="M314 151H947V0H88V136L685 929H97V1082H917V951L314 151Z"/>
            <glyph unicode="{" horiz-adv-x="693"
                   d="M632 -366Q455 -316 366 -202T276 101V300Q276 543 64 543V688Q276 688 276 930V1138Q278 1321 365 1433T632 1597L670 1482Q461 1415 461 1133V931Q461 704 294 615Q461 525 461 296V90Q464 -185 670 -251L632 -366Z"/>
            <glyph unicode="|" horiz-adv-x="499" d="M324 -270H175V1456H324V-270Z"/>
            <glyph unicode="}" horiz-adv-x="693"
                   d="M19 -251Q222 -186 229 80V300Q229 531 410 615Q229 697 229 930V1133Q229 1415 20 1482L58 1597Q235 1547 324 1435T414 1137V927Q414 688 626 688V543Q414 543 414 300V98Q414 -90 324 -203T58 -366L19 -251Z"/>
            <glyph unicode="~" horiz-adv-x="1393"
                   d="M1263 777Q1263 619 1170 511T939 402Q867 402 803 428T655 529T533 621T454 639Q376 639 334 586T292 438L131 436Q131 596 223 699T454 802Q530 802 600 770T758 658T910 567L939 565Q1015 565 1062 623T1110 776L1263 777Z"/>
            <glyph unicode="&#xa0;" horiz-adv-x="507"/>
            <glyph unicode="&#xa1;" horiz-adv-x="499"
                   d="M170 684H338L351 -360H157L170 684ZM358 996Q358 951 331 920T249 889T167 920T139 996T167 1071T249 1101T330 1071T358 996Z"/>
            <glyph unicode="&#xa2;" horiz-adv-x="1120" d="M586 131Q686 131 760 191T842 341H1017Q1011 215 912 115T669 -12V-245H484V-11Q305 23 205 165T105 527V562Q105 774 206 916T484 1092V1318H669V1095Q819 1072 915 966T1017 710H842Q834 815 763 882T586 950Q445
950 368 849T290 555V520Q290 333 367 232T586 131Z"/>
            <glyph unicode="&#xa3;" horiz-adv-x="1190" d="M449 622L457 402Q457 248 395 157H1128L1127 0H95V157H172Q212 166 237 231T264 393V401L256 622H91V779H251L242 1039Q242 1238 364 1357T687 1476Q877 1476 988 1370T1099 1087H908Q908 1194 845 1256T670 1318Q565
1318 500 1241T435 1039L444 779H763V622H449Z"/>
            <glyph unicode="&#xa4;" horiz-adv-x="1460" d="M1103 112Q944 -20 735 -20Q528 -20 369 110L235 -26L105 109L244 250Q140 406 140 608Q140 814 252 977L105 1128L235 1264L382 1114Q540 1234 735 1234Q931 1234 1090 1113L1239 1265L1371 1128L1220 974Q1330
811 1330 608Q1330 412 1228 253L1371 109L1239 -27L1103 112ZM311 608Q311 485 368 379T524 212T735 151T946 212T1100 379T1157 608Q1157 730 1101 835T946 1001T735 1062Q622 1062 524 1002T369 836T311 608Z"/>
            <glyph unicode="&#xa5;" horiz-adv-x="1075"
                   d="M539 793L847 1456H1060L693 736H954V611H630V446H954V322H630V0H437V322H119V446H437V611H119V736H382L15 1456H231L539 793Z"/>
            <glyph unicode="&#xa6;" horiz-adv-x="491" d="M147 -270V521H333V-270H147ZM333 698H147V1456H333V698Z"/>
            <glyph unicode="&#xa7;" horiz-adv-x="1256" d="M1145 431Q1145 242 959 157Q1028 108 1064 40T1100 -128Q1100 -296 970 -395T612 -495Q500 -495 400 -467T229 -382Q90 -269 90 -64L276 -62Q276 -192 366 -267T612 -343Q748 -343 831 -285T914 -130Q914 -41 843
11T563 126Q381 174 285 229T143 362T96 551Q96 737 278 825Q212 874 177 942T141 1110Q141 1276 274 1376T630 1476Q862 1476 992 1363T1122 1045H937Q937 1170 853 1247T630 1325Q488 1325 408 1268T327 1112Q327 1043 355 1003T450 931T661 858T889 782T1030
698T1116 585T1145 431ZM602 691Q512 715 437 742Q357 723 320 673T282 553Q282 483 309 443T402 370T611 296T797 238Q875 258 917 308T959 428Q959 516 890 570T602 691Z"/>
            <glyph unicode="&#xa8;" horiz-adv-x="856"
                   d="M101 1371Q101 1416 128 1446T210 1477T292 1447T320 1371T292 1296T210 1266T129 1296T101 1371ZM531 1369Q531 1414 558 1445T640 1476T722 1445T750 1369T722 1294T640 1264T559 1294T531 1369Z"/>
            <glyph unicode="&#xa9;" horiz-adv-x="1609" d="M1119 597Q1119 444 1033 364T788 283Q631 283 537 388T442 676V786Q442 962 537 1067T788 1173Q948 1173 1034 1091T1120 860H974Q974 959 927 1001T788 1044Q694 1044 640 975T586 783V670Q586 550 640 481T788
412Q880 412 926 454T973 597H1119ZM206 729Q206 557 286 411T503 181T801 98T1098 181T1315 410T1395 729Q1395 899 1316 1044T1100 1272T801 1356Q641 1356 503 1274T286 1045T206 729ZM91 729Q91 931 184 1104T443 1376T801 1476T1158 1377T1416 1104T1510 729Q1510
532 1420 360T1165 84T801 -21Q604 -21 439 82T182 358T91 729Z"/>
            <glyph unicode="&#xaa;" horiz-adv-x="915" d="M618 705Q606 739 600 777Q524 691 396 691Q277 691 212 753T147 918Q147 1029 230 1089T486 1149H594V1201Q594 1336 470 1336Q401 1336 362 1309T322 1231L161 1243Q161 1346 247 1411T470 1476Q603 1476 680 1405T757
1199V883Q757 786 783 705H618ZM435 828Q478 828 522 848T594 895V1037H482Q399 1036 355 1005T310 922Q310 828 435 828Z"/>
            <glyph unicode="&#xab;" horiz-adv-x="961"
                   d="M536 804L794 407H653L358 795V814L653 1203H794L536 804ZM610 548L868 151H727L432 539V558L727 947H868L610 548Z"/>
            <glyph unicode="&#xac;" horiz-adv-x="1134" d="M958 375H772V639H127V800H958V375Z"/>
            <glyph unicode="&#xad;" horiz-adv-x="565" d="M525 543H37V694H525V543Z"/>
            <glyph unicode="&#xae;" horiz-adv-x="1610" d="M90 729Q90 931 183 1104T442 1376T800 1476T1157 1377T1415 1104T1509 729Q1509 532 1419 360T1164 84T800 -21Q603 -21 438 82T181 358T90 729ZM205 729Q205 557 285 411T502 181T800 98Q961 98 1099 182T1315
412T1394 729Q1394 900 1316 1044T1099 1272T800 1356Q640 1356 502 1274T285 1045T205 729ZM653 654V316H512V1165H788Q941 1165 1025 1100T1110 909Q1110 786 982 721Q1104 671 1105 517V456Q1105 370 1122 332V316H977Q963 352 963 444T960 554Q944 650 829
654H653ZM653 782H809Q881 784 925 817T969 904Q969 977 930 1007T791 1038H653V782Z"/>
            <glyph unicode="&#xaf;" horiz-adv-x="938" d="M814 1302H142V1445H814V1302Z"/>
            <glyph unicode="&#xb0;" horiz-adv-x="765" d="M130 1216Q130 1320 204 1398T385 1476Q489 1476 562 1399T636 1216Q636 1110 563 1035T385 960Q280 960 205 1035T130 1216ZM385 1088Q439 1088 476 1123T513 1216Q513 1274 476 1311T385 1349Q330 1349 293 1310T255
1216T292 1125T385 1088Z"/>
            <glyph unicode="&#xb1;" horiz-adv-x="1094"
                   d="M649 854H1013V703H649V289H482V703H97V854H482V1267H649V854ZM970 0H135V152H970V0Z"/>
            <glyph unicode="&#xb2;" horiz-adv-x="751"
                   d="M683 667H84V775L384 1057Q493 1159 493 1228Q493 1277 461 1307T369 1338Q294 1338 259 1300T223 1205H66Q66 1319 149 1393T365 1467T574 1404T651 1230Q651 1126 544 1019L460 940L284 795H683V667Z"/>
            <glyph unicode="&#xb3;" horiz-adv-x="751" d="M265 1126H349Q423 1126 459 1156T495 1235Q495 1280 464 1309T362 1338Q305 1338 268 1313T230 1246H73Q73 1344 154 1405T360 1467Q497 1467 575 1407T653 1242Q653 1187 618 1142T517 1071Q666 1030 666 887Q666
781 581 719T360 656Q228 656 145 719T62 889H220Q220 844 259 814T366 784Q436 784 472 814T509 895Q509 1008 353 1010H265V1126Z"/>
            <glyph unicode="&#xb4;" horiz-adv-x="642" d="M316 1536H540L272 1242H123L316 1536Z"/>
            <glyph unicode="&#xb5;" horiz-adv-x="1160"
                   d="M339 1082V449Q340 286 391 208T559 130Q758 130 820 282V1082H1006V0H839L830 115Q737 -20 567 -20Q420 -20 339 53V-416H154V1082H339Z"/>
            <glyph unicode="&#xb6;" horiz-adv-x="1001"
                   d="M646 0V520H562Q332 520 200 647T67 988Q67 1201 200 1328T563 1456H832V0H646Z"/>
            <glyph unicode="&#xb7;" horiz-adv-x="534"
                   d="M147 729Q147 777 175 809T261 841T347 809T377 729Q377 682 348 651T261 619T176 650T147 729Z"/>
            <glyph unicode="&#xb8;" horiz-adv-x="507"
                   d="M285 0L273 -52Q426 -79 426 -225Q426 -322 346 -378T123 -435L116 -328Q195 -328 238 -302T282 -229Q282 -185 250 -164T120 -134L152 0H285Z"/>
            <glyph unicode="&#xb9;" horiz-adv-x="751" d="M495 667H338V1268L122 1211V1339L477 1456H495V667Z"/>
            <glyph unicode="&#xba;" horiz-adv-x="931" d="M122 1123Q122 1281 216 1378T464 1476Q619 1476 713 1380T807 1117V1043Q807 884 714 787T466 690T217 787T122 1049V1123ZM285 1043Q285 943 333 886T466 829Q549 829 596 886T644 1045V1123Q644 1222 596 1279T464
1336Q383 1336 335 1281T285 1129V1043Z"/>
            <glyph unicode="&#xbb;" horiz-adv-x="960"
                   d="M244 949L539 560V541L244 152H102L360 550L102 949H244ZM593 949L888 560V541L593 152H451L709 550L451 949H593Z"/>
            <glyph unicode="&#xbc;" horiz-adv-x="1500"
                   d="M458 664H301V1265L85 1208V1336L440 1453H458V664ZM443 118L339 184L1050 1322L1154 1256L443 118ZM1318 299H1425V169H1318V0H1161V169H786L780 271L1157 789H1318V299ZM938 299H1161V588L1144 560L938 299Z"/>
            <glyph unicode="&#xbd;" horiz-adv-x="1589" d="M399 118L295 184L1006 1322L1110 1256L399 118ZM453 664H296V1265L80 1208V1336L435 1453H453V664ZM1481 0H882V108L1182 390Q1291 492 1291 561Q1291 610 1259 640T1167 671Q1092 671 1057 633T1021 538H864Q864
652 947 726T1163 800T1372 737T1449 563Q1449 459 1342 352L1258 273L1082 128H1481V0Z"/>
            <glyph unicode="&#xbe;" horiz-adv-x="1593" d="M570 118L466 184L1177 1322L1281 1256L570 118ZM1410 299H1517V169H1410V0H1253V169H878L872 271L1249 789H1410V299ZM1030 299H1253V588L1236 560L1030 299ZM314 1126H398Q472 1126 508 1156T544 1235Q544 1280
513 1309T411 1338Q354 1338 317 1313T279 1246H122Q122 1344 203 1405T409 1467Q546 1467 624 1407T702 1242Q702 1187 667 1142T566 1071Q715 1030 715 887Q715 781 630 719T409 656Q277 656 194 719T111 889H269Q269 844 308 814T415 784Q485 784 521 814T558
895Q558 1008 402 1010H314V1126Z"/>
            <glyph unicode="&#xbf;" horiz-adv-x="969" d="M588 680Q587 574 567 511T498 388T358 233T255 37L253 0Q253 -109 311 -166T478 -224Q578 -224 640 -168T703 -20H888Q886 -181 774 -283T478 -385Q282 -385 175 -285T68 -5Q68 168 228 343L337 456Q403 534 403
680H588ZM596 997Q596 952 569 921T487 890T405 921T377 997Q377 1041 405 1071T487 1101T568 1071T596 997Z"/>
            <glyph unicode="&#xc0;" horiz-adv-x="1336"
                   d="M973 380H363L226 0H28L584 1456H752L1309 0H1112L973 380ZM421 538H916L668 1219L421 538ZM778 1552H619L361 1846H584L778 1552Z"/>
            <glyph unicode="&#xc1;" horiz-adv-x="1336"
                   d="M973 380H363L226 0H28L584 1456H752L1309 0H1112L973 380ZM421 538H916L668 1219L421 538ZM763 1846H987L719 1552H570L763 1846Z"/>
            <glyph unicode="&#xc2;" horiz-adv-x="1336"
                   d="M973 380H363L226 0H28L584 1456H752L1309 0H1112L973 380ZM421 538H916L668 1219L421 538ZM975 1572V1562H822L672 1732L523 1562H370V1574L616 1846H728L975 1572Z"/>
            <glyph unicode="&#xc3;" horiz-adv-x="1336" d="M973 380H363L226 0H28L584 1456H752L1309 0H1112L973 380ZM421 538H916L668 1219L421 538ZM1027 1814Q1027 1706 966 1639T812 1572Q771 1572 741 1582T663 1623T593 1660T543 1667Q502 1667 473 1636T444 1555L320
1562Q320 1669 380 1739T534 1809Q569 1809 597 1799T673 1760T746 1722T803 1713Q846 1713 874 1747T903 1826L1027 1814Z"/>
            <glyph unicode="&#xc4;" horiz-adv-x="1336" d="M973 380H363L226 0H28L584 1456H752L1309 0H1112L973 380ZM421 538H916L668 1219L421 538ZM350 1681Q350 1726 377 1756T459 1787T541 1757T569 1681T541 1606T459 1576T378 1606T350 1681ZM780 1679Q780 1724
807 1755T889 1786T971 1755T999 1679T971 1604T889 1574T808 1604T780 1679Z"/>
            <glyph unicode="&#xc5;" horiz-adv-x="1336" d="M973 380H363L226 0H28L584 1456H752L1309 0H1112L973 380ZM421 538H916L668 1219L421 538ZM887 1729Q887 1642 825 1584T672 1525Q580 1525 519 1584T457 1729T518 1876T672 1937T825 1876T887 1729ZM556 1729Q556
1682 589 1648T672 1614Q720 1614 754 1647T788 1729T755 1812T672 1847Q622 1847 589 1812T556 1729Z"/>
            <glyph unicode="&#xc6;" horiz-adv-x="1914"
                   d="M1879 0H996L981 353H417L212 0H-14L866 1456H1817V1304H1126L1146 833H1736V682H1152L1174 151H1879V0ZM518 527H974L943 1260L518 527Z"/>
            <glyph unicode="&#xc7;" horiz-adv-x="1333" d="M1240 462Q1213 231 1070 106T688 -20Q430 -20 275 165T119 660V800Q119 1003 191 1157T397 1393T705 1476Q937 1476 1077 1347T1240 988H1047Q1022 1162 939 1240T705 1318Q521 1318 417 1182T312 795V654Q312
417 411 277T688 137Q848 137 933 209T1047 462H1240ZM751 -9L739 -61Q892 -88 892 -234Q892 -331 812 -387T589 -444L582 -337Q661 -337 704 -311T748 -238Q748 -194 716 -173T586 -143L618 -9H751Z"/>
            <glyph unicode="&#xc8;" horiz-adv-x="1164"
                   d="M992 673H361V157H1094V0H169V1456H1084V1298H361V830H992V673ZM725 1564H566L308 1858H531L725 1564Z"/>
            <glyph unicode="&#xc9;" horiz-adv-x="1164"
                   d="M992 673H361V157H1094V0H169V1456H1084V1298H361V830H992V673ZM710 1858H934L666 1564H517L710 1858Z"/>
            <glyph unicode="&#xca;" horiz-adv-x="1164"
                   d="M992 673H361V157H1094V0H169V1456H1084V1298H361V830H992V673ZM922 1584V1574H769L619 1744L470 1574H317V1586L563 1858H675L922 1584Z"/>
            <glyph unicode="&#xcb;" horiz-adv-x="1164" d="M992 673H361V157H1094V0H169V1456H1084V1298H361V830H992V673ZM297 1693Q297 1738 324 1768T406 1799T488 1769T516 1693T488 1618T406 1588T325 1618T297 1693ZM727 1691Q727 1736 754 1767T836 1798T918 1767T946
1691T918 1616T836 1586T755 1616T727 1691Z"/>
            <glyph unicode="&#xcc;" horiz-adv-x="557" d="M375 0H183V1456H375V0ZM385 1564H226L-32 1858H191L385 1564Z"/>
            <glyph unicode="&#xcd;" horiz-adv-x="557" d="M375 0H183V1456H375V0ZM369 1858H593L325 1564H176L369 1858Z"/>
            <glyph unicode="&#xce;" horiz-adv-x="557"
                   d="M375 0H183V1456H375V0ZM582 1584V1574H429L279 1744L130 1574H-23V1586L223 1858H335L582 1584Z"/>
            <glyph unicode="&#xcf;" horiz-adv-x="557"
                   d="M375 0H183V1456H375V0ZM-43 1693Q-43 1738 -16 1768T66 1799T148 1769T176 1693T148 1618T66 1588T-15 1618T-43 1693ZM387 1691Q387 1736 414 1767T496 1798T578 1767T606 1691T578 1616T496 1586T415 1616T387 1691Z"/>
            <glyph unicode="&#xd0;" horiz-adv-x="1373"
                   d="M199 0V666H7V817H199V1456H610Q800 1456 946 1372T1171 1133T1252 777V684Q1252 478 1173 323T946 85T602 0H199ZM643 666H391V157H592Q814 157 937 294T1062 680V773Q1062 1021 946 1158T615 1298H391V817H643V666Z"/>
            <glyph unicode="&#xd1;" horiz-adv-x="1460" d="M1288 0H1095L362 1122V0H169V1456H362L1097 329V1456H1288V0ZM1081 1814Q1081 1706 1020 1639T866 1572Q825 1572 795 1582T717 1623T647 1660T597 1667Q556 1667 527 1636T498 1555L374 1562Q374 1669 434 1739T588
1809Q623 1809 651 1799T727 1760T800 1722T857 1713Q900 1713 928 1747T957 1826L1081 1814Z"/>
            <glyph unicode="&#xd2;" horiz-adv-x="1408" d="M1289 681Q1289 467 1217 308T1013 64T705 -20Q533 -20 400 64T194 305T118 668V773Q118 983 191 1144T397 1390T703 1476Q878 1476 1011 1392T1217 1147T1289 773V681ZM1098 775Q1098 1034 994 1172T703 1311Q521
1311 417 1173T309 788V681Q309 430 414 287T705 143Q891 143 993 278T1098 667V775ZM812 1554H653L395 1848H618L812 1554Z"/>
            <glyph unicode="&#xd3;" horiz-adv-x="1408" d="M1289 681Q1289 467 1217 308T1013 64T705 -20Q533 -20 400 64T194 305T118 668V773Q118 983 191 1144T397 1390T703 1476Q878 1476 1011 1392T1217 1147T1289 773V681ZM1098 775Q1098 1034 994 1172T703 1311Q521
1311 417 1173T309 788V681Q309 430 414 287T705 143Q891 143 993 278T1098 667V775ZM797 1848H1021L753 1554H604L797 1848Z"/>
            <glyph unicode="&#xd4;" horiz-adv-x="1408" d="M1289 681Q1289 467 1217 308T1013 64T705 -20Q533 -20 400 64T194 305T118 668V773Q118 983 191 1144T397 1390T703 1476Q878 1476 1011 1392T1217 1147T1289 773V681ZM1098 775Q1098 1034 994 1172T703 1311Q521
1311 417 1173T309 788V681Q309 430 414 287T705 143Q891 143 993 278T1098 667V775ZM1009 1574V1564H856L706 1734L557 1564H404V1576L650 1848H762L1009 1574Z"/>
            <glyph unicode="&#xd5;" horiz-adv-x="1408" d="M1289 681Q1289 467 1217 308T1013 64T705 -20Q533 -20 400 64T194 305T118 668V773Q118 983 191 1144T397 1390T703 1476Q878 1476 1011 1392T1217 1147T1289 773V681ZM1098 775Q1098 1034 994 1172T703 1311Q521
1311 417 1173T309 788V681Q309 430 414 287T705 143Q891 143 993 278T1098 667V775ZM1061 1816Q1061 1708 1000 1641T846 1574Q805 1574 775 1584T697 1625T627 1662T577 1669Q536 1669 507 1638T478 1557L354 1564Q354 1671 414 1741T568 1811Q603 1811 631 1801T707
1762T780 1724T837 1715Q880 1715 908 1749T937 1828L1061 1816Z"/>
            <glyph unicode="&#xd6;" horiz-adv-x="1408" d="M1289 681Q1289 467 1217 308T1013 64T705 -20Q533 -20 400 64T194 305T118 668V773Q118 983 191 1144T397 1390T703 1476Q878 1476 1011 1392T1217 1147T1289 773V681ZM1098 775Q1098 1034 994 1172T703 1311Q521
1311 417 1173T309 788V681Q309 430 414 287T705 143Q891 143 993 278T1098 667V775ZM384 1683Q384 1728 411 1758T493 1789T575 1759T603 1683T575 1608T493 1578T412 1608T384 1683ZM814 1681Q814 1726 841 1757T923 1788T1005 1757T1033 1681T1005 1606T923
1576T842 1606T814 1681Z"/>
            <glyph unicode="&#xd7;" horiz-adv-x="1092"
                   d="M89 329L419 665L91 1000L210 1123L539 788L868 1123L987 1000L659 665L989 329L870 206L539 543L208 206L89 329Z"/>
            <glyph unicode="&#xd8;" horiz-adv-x="1408" d="M1289 681Q1289 467 1217 308T1013 64T705 -20Q534 -20 403 62L306 -93H164L308 138Q118 330 118 690V773Q118 983 191 1144T397 1390T703 1476Q917 1476 1065 1351L1168 1516H1309L1150 1261Q1287 1074 1289 780V681ZM309
681Q309 437 407 296L971 1200Q869 1311 703 1311Q521 1311 417 1173T309 788V681ZM1098 775Q1098 957 1042 1088L493 207Q584 143 705 143Q891 143 993 278T1098 667V775Z"/>
            <glyph unicode="&#xd9;" horiz-adv-x="1328"
                   d="M1194 1456V466Q1193 260 1065 129T716 -18L665 -20Q426 -20 284 109T140 464V1456H330V470Q330 312 417 225T665 137Q828 137 914 224T1001 469V1456H1194ZM773 1552H614L356 1846H579L773 1552Z"/>
            <glyph unicode="&#xda;" horiz-adv-x="1328"
                   d="M1194 1456V466Q1193 260 1065 129T716 -18L665 -20Q426 -20 284 109T140 464V1456H330V470Q330 312 417 225T665 137Q828 137 914 224T1001 469V1456H1194ZM758 1846H982L714 1552H565L758 1846Z"/>
            <glyph unicode="&#xdb;" horiz-adv-x="1328" d="M1194 1456V466Q1193 260 1065 129T716 -18L665 -20Q426 -20 284 109T140 464V1456H330V470Q330 312 417 225T665 137Q828 137 914 224T1001 469V1456H1194ZM970 1572V1562H817L667 1732L518 1562H365V1574L611
1846H723L970 1572Z"/>
            <glyph unicode="&#xdc;" horiz-adv-x="1328" d="M1194 1456V466Q1193 260 1065 129T716 -18L665 -20Q426 -20 284 109T140 464V1456H330V470Q330 312 417 225T665 137Q828 137 914 224T1001 469V1456H1194ZM345 1681Q345 1726 372 1756T454 1787T536 1757T564
1681T536 1606T454 1576T373 1606T345 1681ZM775 1679Q775 1724 802 1755T884 1786T966 1755T994 1679T966 1604T884 1574T803 1604T775 1679Z"/>
            <glyph unicode="&#xdd;" horiz-adv-x="1230"
                   d="M613 725L993 1456H1211L709 543V0H517V543L15 1456H235L613 725ZM708 1846H932L664 1552H515L708 1846Z"/>
            <glyph unicode="&#xde;" horiz-adv-x="1210"
                   d="M352 1456V1163H631Q778 1163 888 1111T1057 961T1117 738Q1117 544 985 429T626 313H352V0H166V1456H352ZM352 1011V465H629Q771 465 851 540T931 736Q931 859 851 934T635 1011H352Z"/>
            <glyph unicode="&#xdf;" horiz-adv-x="1218" d="M324 0H139V1111Q139 1319 242 1436T532 1554Q712 1554 810 1465T909 1216Q909 1091 845 990T781 819Q781 768 818 721T950 601T1087 461T1130 317Q1130 158 1029 69T745 -20Q664 -20 574 2T445 52L488 207Q537
175 604 153T725 131Q832 131 888 178T945 307Q945 359 908 407T777 528T639 671T595 821Q595 910 664 1013T734 1201Q734 1295 682 1348T542 1402Q324 1402 324 1109V0Z"/>
            <glyph unicode="&#xe0;" horiz-adv-x="1114" d="M808 0Q792 32 782 114Q653 -20 474 -20Q314 -20 212 70T109 300Q109 469 237 562T599 656H779V741Q779 838 721 895T550 953Q451 953 384 903T317 782H131Q131 863 188 938T344 1058T561 1102Q748 1102 854 1009T964
751V253Q964 104 1002 16V0H808ZM501 141Q588 141 666 186T779 303V525H634Q294 525 294 326Q294 239 352 190T501 141ZM687 1242H528L270 1536H493L687 1242Z"/>
            <glyph unicode="&#xe1;" horiz-adv-x="1114" d="M808 0Q792 32 782 114Q653 -20 474 -20Q314 -20 212 70T109 300Q109 469 237 562T599 656H779V741Q779 838 721 895T550 953Q451 953 384 903T317 782H131Q131 863 188 938T344 1058T561 1102Q748 1102 854 1009T964
751V253Q964 104 1002 16V0H808ZM501 141Q588 141 666 186T779 303V525H634Q294 525 294 326Q294 239 352 190T501 141ZM672 1536H896L628 1242H479L672 1536Z"/>
            <glyph unicode="&#xe2;" horiz-adv-x="1114" d="M808 0Q792 32 782 114Q653 -20 474 -20Q314 -20 212 70T109 300Q109 469 237 562T599 656H779V741Q779 838 721 895T550 953Q451 953 384 903T317 782H131Q131 863 188 938T344 1058T561 1102Q748 1102 854 1009T964
751V253Q964 104 1002 16V0H808ZM501 141Q588 141 666 186T779 303V525H634Q294 525 294 326Q294 239 352 190T501 141ZM884 1262V1252H731L581 1422L432 1252H279V1264L525 1536H637L884 1262Z"/>
            <glyph unicode="&#xe3;" horiz-adv-x="1114" d="M808 0Q792 32 782 114Q653 -20 474 -20Q314 -20 212 70T109 300Q109 469 237 562T599 656H779V741Q779 838 721 895T550 953Q451 953 384 903T317 782H131Q131 863 188 938T344 1058T561 1102Q748 1102 854 1009T964
751V253Q964 104 1002 16V0H808ZM501 141Q588 141 666 186T779 303V525H634Q294 525 294 326Q294 239 352 190T501 141ZM936 1504Q936 1396 875 1329T721 1262Q680 1262 650 1272T572 1313T502 1350T452 1357Q411 1357 382 1326T353 1245L229 1252Q229 1359 289
1429T443 1499Q478 1499 506 1489T582 1450T655 1412T712 1403Q755 1403 783 1437T812 1516L936 1504Z"/>
            <glyph unicode="&#xe4;" horiz-adv-x="1114" d="M808 0Q792 32 782 114Q653 -20 474 -20Q314 -20 212 70T109 300Q109 469 237 562T599 656H779V741Q779 838 721 895T550 953Q451 953 384 903T317 782H131Q131 863 188 938T344 1058T561 1102Q748 1102 854 1009T964
751V253Q964 104 1002 16V0H808ZM501 141Q588 141 666 186T779 303V525H634Q294 525 294 326Q294 239 352 190T501 141ZM259 1371Q259 1416 286 1446T368 1477T450 1447T478 1371T450 1296T368 1266T287 1296T259 1371ZM689 1369Q689 1414 716 1445T798 1476T880
1445T908 1369T880 1294T798 1264T717 1294T689 1369Z"/>
            <glyph unicode="&#xe5;" horiz-adv-x="1114" d="M808 0Q792 32 782 114Q653 -20 474 -20Q314 -20 212 70T109 300Q109 469 237 562T599 656H779V741Q779 838 721 895T550 953Q451 953 384 903T317 782H131Q131 863 188 938T344 1058T561 1102Q748 1102 854 1009T964
751V253Q964 104 1002 16V0H808ZM501 141Q588 141 666 186T779 303V525H634Q294 525 294 326Q294 239 352 190T501 141ZM796 1419Q796 1332 734 1274T581 1215Q489 1215 428 1274T366 1419T427 1566T581 1627T734 1566T796 1419ZM465 1419Q465 1372 498 1338T581
1304Q629 1304 663 1337T697 1419T664 1502T581 1537Q531 1537 498 1502T465 1419Z"/>
            <glyph unicode="&#xe6;" horiz-adv-x="1729" d="M1262 -20Q1001 -20 865 160Q800 74 687 27T433 -20Q266 -20 172 66T78 304Q78 461 191 548T526 635H749V720Q749 827 694 888T535 950Q430 950 360 895T290 759L106 778Q106 921 227 1011T535 1102Q650 1102 738
1061T876 936Q939 1015 1026 1058T1218 1102Q1428 1102 1544 974T1660 612V497H932Q939 321 1026 226T1262 130Q1410 130 1531 206L1578 237L1642 101Q1484 -20 1262 -20ZM469 130Q541 130 620 167T749 258V495H521Q404 493 334 438T264 300Q264 223 317 177T469
130ZM1218 950Q1103 950 1029 865T937 640H1475V671Q1475 803 1408 876T1218 950Z"/>
            <glyph unicode="&#xe7;" horiz-adv-x="1072" d="M574 131Q673 131 747 191T829 341H1004Q999 248 940 164T783 30T574 -20Q353 -20 223 127T92 531V562Q92 720 150 843T316 1034T573 1102Q755 1102 875 993T1004 710H829Q821 815 750 882T573 950Q432 950 355
849T277 555V520Q277 333 354 232T574 131ZM604 -9L592 -61Q745 -88 745 -234Q745 -331 665 -387T442 -444L435 -337Q514 -337 557 -311T601 -238Q601 -194 569 -173T439 -143L471 -9H604Z"/>
            <glyph unicode="&#xe8;" horiz-adv-x="1085" d="M589 -20Q369 -20 231 124T93 511V545Q93 706 154 832T326 1030T566 1102Q777 1102 894 963T1011 565V488H278Q282 328 371 230T599 131Q697 131 765 171T884 277L997 189Q861 -20 589 -20ZM566 950Q454 950 378
869T284 640H826V654Q818 795 750 872T566 950ZM671 1242H512L254 1536H477L671 1242Z"/>
            <glyph unicode="&#xe9;" horiz-adv-x="1085" d="M589 -20Q369 -20 231 124T93 511V545Q93 706 154 832T326 1030T566 1102Q777 1102 894 963T1011 565V488H278Q282 328 371 230T599 131Q697 131 765 171T884 277L997 189Q861 -20 589 -20ZM566 950Q454 950 378
869T284 640H826V654Q818 795 750 872T566 950ZM656 1536H880L612 1242H463L656 1536Z"/>
            <glyph unicode="&#xea;" horiz-adv-x="1085" d="M589 -20Q369 -20 231 124T93 511V545Q93 706 154 832T326 1030T566 1102Q777 1102 894 963T1011 565V488H278Q282 328 371 230T599 131Q697 131 765 171T884 277L997 189Q861 -20 589 -20ZM566 950Q454 950 378
869T284 640H826V654Q818 795 750 872T566 950ZM868 1262V1252H715L565 1422L416 1252H263V1264L509 1536H621L868 1262Z"/>
            <glyph unicode="&#xeb;" horiz-adv-x="1085" d="M589 -20Q369 -20 231 124T93 511V545Q93 706 154 832T326 1030T566 1102Q777 1102 894 963T1011 565V488H278Q282 328 371 230T599 131Q697 131 765 171T884 277L997 189Q861 -20 589 -20ZM566 950Q454 950 378
869T284 640H826V654Q818 795 750 872T566 950ZM243 1371Q243 1416 270 1446T352 1477T434 1447T462 1371T434 1296T352 1266T271 1296T243 1371ZM673 1369Q673 1414 700 1445T782 1476T864 1445T892 1369T864 1294T782 1264T701 1294T673 1369Z"/>
            <glyph unicode="&#xec;" horiz-adv-x="506" d="M341 0H155V1082H341V0ZM615 1497H456L198 1791H421L615 1497Z"/>
            <glyph unicode="&#xed;" horiz-adv-x="506" d="M341 0H155V1082H341V0ZM343 1791H567L299 1497H150L343 1791Z"/>
            <glyph unicode="&#xee;" horiz-adv-x="506"
                   d="M341 0H155V1082H341V0ZM556 1261V1251H403L253 1421L104 1251H-49V1263L197 1535H309L556 1261Z"/>
            <glyph unicode="&#xef;" horiz-adv-x="506"
                   d="M341 0H155V1082H341V0ZM-69 1370Q-69 1415 -42 1445T40 1476T122 1446T150 1370T122 1295T40 1265T-41 1295T-69 1370ZM361 1368Q361 1413 388 1444T470 1475T552 1444T580 1368T552 1293T470 1263T389 1293T361 1368Z"/>
            <glyph unicode="&#xf0;" horiz-adv-x="1200" d="M820 1301Q1069 1037 1069 628V535Q1069 377 1011 251T844 52T602 -20Q467 -20 357 44T187 221T126 467Q126 614 182 730T341 912T574 977Q737 977 858 863Q810 1058 669 1199L451 1051L378 1150L570 1281Q438 1372
255 1421L312 1580Q551 1526 726 1387L915 1516L988 1416L820 1301ZM884 635L882 691Q849 752 780 788T618 825Q473 825 392 730T311 467Q311 327 394 229T606 131Q731 131 807 244T884 541V635Z"/>
            <glyph unicode="&#xf1;" horiz-adv-x="1130" d="M315 1082L321 946Q445 1102 645 1102Q988 1102 991 715V0H806V716Q805 833 753 889T589 945Q499 945 431 897T325 771V0H140V1082H315ZM927 1504Q927 1396 866 1329T712 1262Q671 1262 641 1272T563 1313T493 1350T443
1357Q402 1357 373 1326T344 1245L220 1252Q220 1359 280 1429T434 1499Q469 1499 497 1489T573 1450T646 1412T703 1403Q746 1403 774 1437T803 1516L927 1504Z"/>
            <glyph unicode="&#xf2;" horiz-adv-x="1168" d="M91 551Q91 710 153 837T327 1033T582 1102Q803 1102 939 949T1076 542V529Q1076 371 1016 246T843 50T584 -20Q364 -20 228 133T91 538V551ZM277 529Q277 349 360 240T584 131Q725 131 808 241T891 551Q891 729
807 839T582 950Q445 950 361 841T277 529ZM681 1242H522L264 1536H487L681 1242Z"/>
            <glyph unicode="&#xf3;" horiz-adv-x="1168" d="M91 551Q91 710 153 837T327 1033T582 1102Q803 1102 939 949T1076 542V529Q1076 371 1016 246T843 50T584 -20Q364 -20 228 133T91 538V551ZM277 529Q277 349 360 240T584 131Q725 131 808 241T891 551Q891 729
807 839T582 950Q445 950 361 841T277 529ZM666 1536H890L622 1242H473L666 1536Z"/>
            <glyph unicode="&#xf4;" horiz-adv-x="1168" d="M91 551Q91 710 153 837T327 1033T582 1102Q803 1102 939 949T1076 542V529Q1076 371 1016 246T843 50T584 -20Q364 -20 228 133T91 538V551ZM277 529Q277 349 360 240T584 131Q725 131 808 241T891 551Q891 729
807 839T582 950Q445 950 361 841T277 529ZM878 1262V1252H725L575 1422L426 1252H273V1264L519 1536H631L878 1262Z"/>
            <glyph unicode="&#xf5;" horiz-adv-x="1168" d="M91 551Q91 710 153 837T327 1033T582 1102Q803 1102 939 949T1076 542V529Q1076 371 1016 246T843 50T584 -20Q364 -20 228 133T91 538V551ZM277 529Q277 349 360 240T584 131Q725 131 808 241T891 551Q891 729
807 839T582 950Q445 950 361 841T277 529ZM930 1504Q930 1396 869 1329T715 1262Q674 1262 644 1272T566 1313T496 1350T446 1357Q405 1357 376 1326T347 1245L223 1252Q223 1359 283 1429T437 1499Q472 1499 500 1489T576 1450T649 1412T706 1403Q749 1403 777
1437T806 1516L930 1504Z"/>
            <glyph unicode="&#xf6;" horiz-adv-x="1168" d="M91 551Q91 710 153 837T327 1033T582 1102Q803 1102 939 949T1076 542V529Q1076 371 1016 246T843 50T584 -20Q364 -20 228 133T91 538V551ZM277 529Q277 349 360 240T584 131Q725 131 808 241T891 551Q891 729
807 839T582 950Q445 950 361 841T277 529ZM253 1371Q253 1416 280 1446T362 1477T444 1447T472 1371T444 1296T362 1266T281 1296T253 1371ZM683 1369Q683 1414 710 1445T792 1476T874 1445T902 1369T874 1294T792 1264T711 1294T683 1369Z"/>
            <glyph unicode="&#xf7;" horiz-adv-x="1169" d="M1069 600H71V784H1069V600ZM461 1098Q461 1146 489 1178T575 1210T661 1178T691 1098Q691 1051 662 1020T575 989T490 1020T461 1098ZM461 281Q461 329 489 361T575 393T661 361T691 281Q691 235 662 204T575 172T490
203T461 281Z"/>
            <glyph unicode="&#xf8;" horiz-adv-x="1160" d="M91 551Q91 710 152 836T326 1032T582 1102Q692 1102 786 1060L859 1208H983L881 1003Q1076 849 1076 529Q1076 371 1014 244T840 49T584 -20Q480 -20 394 15L320 -134H196L296 69Q91 218 91 551ZM276 529Q276 335
373 224L716 918Q654 950 582 950Q444 950 360 841T276 529ZM890 551Q890 733 803 844L463 156Q518 131 584 131Q723 131 806 240T890 535V551Z"/>
            <glyph unicode="&#xf9;" horiz-adv-x="1129"
                   d="M808 107Q700 -20 491 -20Q318 -20 228 80T136 378V1082H321V383Q321 137 521 137Q733 137 803 295V1082H988V0H812L808 107ZM673 1242H514L256 1536H479L673 1242Z"/>
            <glyph unicode="&#xfa;" horiz-adv-x="1129"
                   d="M808 107Q700 -20 491 -20Q318 -20 228 80T136 378V1082H321V383Q321 137 521 137Q733 137 803 295V1082H988V0H812L808 107ZM658 1536H882L614 1242H465L658 1536Z"/>
            <glyph unicode="&#xfb;" horiz-adv-x="1129"
                   d="M808 107Q700 -20 491 -20Q318 -20 228 80T136 378V1082H321V383Q321 137 521 137Q733 137 803 295V1082H988V0H812L808 107ZM870 1262V1252H717L567 1422L418 1252H265V1264L511 1536H623L870 1262Z"/>
            <glyph unicode="&#xfc;" horiz-adv-x="1129" d="M808 107Q700 -20 491 -20Q318 -20 228 80T136 378V1082H321V383Q321 137 521 137Q733 137 803 295V1082H988V0H812L808 107ZM245 1371Q245 1416 272 1446T354 1477T436 1447T464 1371T436 1296T354 1266T273 1296T245
1371ZM675 1369Q675 1414 702 1445T784 1476T866 1445T894 1369T866 1294T784 1264T703 1294T675 1369Z"/>
            <glyph unicode="&#xfd;" horiz-adv-x="969"
                   d="M494 271L746 1082H944L509 -167Q408 -437 188 -437L153 -434L84 -421V-271L134 -275Q228 -275 280 -237T367 -98L408 12L22 1082H224L494 271ZM599 1536H823L555 1242H406L599 1536Z"/>
            <glyph unicode="&#xfe;" horiz-adv-x="1180" d="M1063 529Q1063 282 950 131T644 -20Q447 -20 334 105V-416H149V1536H334V970Q447 1102 641 1102Q836 1102 949 955T1063 546V529ZM878 550Q878 733 800 839T586 945Q418 945 334 796V279Q417 131 588 131Q721 131
799 236T878 550Z"/>
            <glyph unicode="&#xff;" horiz-adv-x="969" d="M494 271L746 1082H944L509 -167Q408 -437 188 -437L153 -434L84 -421V-271L134 -275Q228 -275 280 -237T367 -98L408 12L22 1082H224L494 271ZM186 1371Q186 1416 213 1446T295 1477T377 1447T405 1371T377 1296T295
1266T214 1296T186 1371ZM616 1369Q616 1414 643 1445T725 1476T807 1445T835 1369T807 1294T725 1264T644 1294T616 1369Z"/>
            <glyph unicode="&#x2013;" horiz-adv-x="1344" d="M1421 651H419V802H1421V651Z"/>
            <glyph unicode="&#x2014;" horiz-adv-x="1599" d="M1737 651H401V802H1737V651Z"/>
            <glyph unicode="&#x2018;" horiz-adv-x="409"
                   d="M270 1555L376 1483Q283 1356 280 1209V1073H96V1189Q96 1291 144 1391T270 1555Z"/>
            <glyph unicode="&#x2019;" horiz-adv-x="409"
                   d="M153 1046L48 1118Q141 1248 144 1392V1536H327V1406Q326 1306 278 1207T153 1046Z"/>
            <glyph unicode="&#x201a;" horiz-adv-x="407"
                   d="M141 -283L36 -210Q127 -83 130 63V181H315V81Q315 -20 266 -121T141 -283Z"/>
            <glyph unicode="&#x201c;" horiz-adv-x="724"
                   d="M278 1555L384 1483Q291 1356 288 1209V1073H104V1189Q104 1291 152 1391T278 1555ZM593 1555L699 1483Q606 1356 603 1209V1073H419V1189Q419 1291 467 1391T593 1555Z"/>
            <glyph unicode="&#x201d;" horiz-adv-x="731"
                   d="M165 1046L60 1118Q153 1248 156 1392V1536H339V1406Q338 1306 290 1207T165 1046ZM472 1046L367 1118Q460 1248 463 1392V1536H646V1406Q645 1306 597 1207T472 1046Z"/>
            <glyph unicode="&#x201e;" horiz-adv-x="705"
                   d="M141 -301L36 -229Q127 -92 130 61V246H315V82Q315 -26 266 -131T141 -301ZM437 -301L332 -229Q423 -92 426 61V246H612V82Q612 -25 564 -129T437 -301Z"/>
            <glyph unicode="&#x2022;" horiz-adv-x="690"
                   d="M138 772Q138 859 193 915T341 971Q432 971 489 917T546 769V732Q546 645 491 590T342 535Q249 535 194 590T138 734V772Z"/>
            <glyph unicode="&#x2039;" horiz-adv-x="614" d="M286 550L544 153H403L108 541V560L403 949H544L286 550Z"/>
            <glyph unicode="&#x203a;" horiz-adv-x="614" d="M231 949L526 560V541L231 152H89L347 550L89 949H231Z"/>
        </font>
</defs>
</svg>
